«Boxfilm Community»

«Boxfilm Community»

Το Boxfilm είναι ένα υπέροχο λειτουργικά σχεδιασμένο Website με πλούσιο και ενεργό υλικό κατεβάσματος ανά κατηγορία. Χρειάζεται μία απλή εγγραφή με ένα email σας και να είστε λίγο εξοικειωμένοι με τη διαδικασία κατεβάσματος μέσω filehosting services WORLDBYTEZ.
Διαβάστε περισσότερα

The best Direct Download

Το Worldbytez είναι ένα υπέροχο λειτουργικά σχεδιασμένος filehosting με πλούσιο και ενεργό υλικό, Χρειάζεται μία απλή εγγραφή με ένα email σας και να είστε λίγο εξοικειωμένοι με τη διαδικασία κατεβάσματος μέσω filehosting services WORLDBYTEZ.
Διαβάστε περισσότερα

Music Movies Games Books Apps

Το Boxfilm είναι ένα υπέροχο λειτουργικά σχεδιασμένο site με πλούσιο και ενεργό υλικό κατεβάσματος ανά κατηγορία. Χρειάζεται μία απλή εγγραφή με ένα email σας και να είστε λίγο εξοικειωμένοι με τη διαδικασία κατεβάσματος μέσω filehosting services WORLDBYTEZ.
Διαβάστε περισσότερα

Ask question

Ρωτήστε και λάβετε απαντήσεις από την κοινότητά μας

Απάντηση

Απαντήστε στις ερωτήσεις για το θέμα σας

Επικοινωνήστε

Οι ειδικοί μας είναι έτοιμοι να απαντήσουν στις ερωτήσεις σας

Νέες δημοσιεύσεις Νέα θέματα Περισσότερες απαντήσεις Hot Θέματα Κορυφαία βαθμολογία

Αναρτήσεις μελών
Χρήστες
Μηνύματα

Δράση Περιπέτεια THE CRAZIES (1973) BluRay 1080p - 720p Sexmeup 2.5 GB - 1.9 GB

BOX NET

DESIGN-BOX
Μέλος του προσωπικού
✭✭✭ Administrator ✭✭✭
✭✭✭ Moderator ✭✭✭
21 Ιούλιος 2019
308
19
18
Awards
0
48493223427_cd938242b2_o.jpg


39173996710_b044c0b6d9_o.png


Είδος Ταινίας: Action, Horror, Sci-Fi
Πρεμιέρα: 16 March 1973 (USA)
Σκηνοθέτης: George A. Romero
Σενάριο: Paul McCollough (based on a script by), George A. Romero (screenplay)
Ηθοποιοί: Lane Carroll, Will MacMillan, Harold Wayne Jones
Υπότιτλοι: Ελληνικοί Ενσωματωμένοι & Σε Ξεχωριστό Αρχείο
Ελληνικός Τίτλος: Ο ουρανός έβρεξε θάνατο
Γνωστό και ως: Code Name: Trixie
Μετάφραση: Άγνωστος
Διάρκεια: 103'
Καταλληλότητα:
4.png


- encoder: .:Sexmeup:.

Πηγή:
REMASTERED.1080p.BluRay.X264-AMIABLE

39173997440_e0b972c8f1_o.png


Υπόθεση:

Ο στρατός προσπαθεί να περιορίσει έναν ανθρώπινα κατασκευασμένο ιό σε μια μικρή πόλη της Πενσιλβάνια. Ο ιός αυτός προκαλεί θάνατο ή μόνιμη παράνοια και η πόλη έχει μετατραπεί σε ένα κολαστήριο.

Η ολοκληρωτική κόλαση είναι έτοιμη να ξαμοληθεί.

Extras:

Το 2010, ο Breck Eisner έκανε ριμέικ με τον ίδιο τίτλο την cult ταινία.

Το σπίτι που καίγεται στην αρχική σκηνή ήταν στην πραγματικότητα μια άσκηση της τοπικής πυροσβεστικής, την οποία εκμεταλλεύτηκε ο Romero για το γύρισμα. Δεν ήταν προγραμματισμένο για την ταινία.

Ο Romero γύρισε την ταινία με μπάτζετ μόλις 270 χιλιάδες δολάρια. Για να το πετύχει αυτό δεν χρησιμοποίησε αληθινούς κασκαντέρ, αλλά ντόπιους πυροσβέστες και ειδικούς στα εκρηκτικά. Επίσης «στρατολόγησε» δευτεροκλασάτους ηθοποιούς από το Πίτσμπουργκ και μη επαγγελματίες από το Ζέλινοπλ και το Έβας Σίτι, την πόλη που γυρίστηκε η ταινία.


40941213722_710d461b27_o.png



40089464785_599858f97a_o.png


48501190052_8b06eda7a2_o.jpg


40982563121_97d9e4fb96_o.png


[video=youtube;ZyHyp7hmmsA]

TEXNIKA XAΡΑΚΤΗΡΙΣΤΙΚΑ

General
Unique ID : 299340961369084129989346789999093856601 (0xE132F8DC15E334527F0753830B99B959)
Complete name : C:\Users\Administrator\Downloads\thecrazies1080micsexmeup\thecrazies1080micsexmeup.mkv
Format : Matroska
Format version : Version 4
File size : 2.53 GiB
Duration : 1 h 43 min
Overall bit rate : 3 520 kb/s
Movie name : .:Sexmeup:. Quality Uploads - encodes -
Encoded date : UTC 2019-08-10 06:48:07
Writing application : mkvmerge v35.0.0 ('All The Love In The World') 64-bit
Writing library : libebml v1.3.9 + libmatroska v1.5.2


Video
ID : 1
Format : AVC
Format/Info : Advanced Video Codec
Format profile : Main@L4
Format settings : CABAC / 4 Ref Frames
Format settings, CABAC : Yes
Format settings, Reference frames : 4 frames
Codec ID : V_MPEG4/ISO/AVC
Duration : 1 h 43 min
Bit rate : 3 301 kb/s
Width : 1 800 pixels
Height : 1 080 pixels
Display aspect ratio : 5:3
Frame rate mode : Constant
Frame rate : 23.976 (24000/1001) FPS
Color space : YUV
Chroma subsampling : 4:2:0
Bit depth : 8 bits
Scan type : Progressive
Bits/(Pixel*Frame) : 0.071
Stream size : 2.32 GiB (92%)
Writing library : x264 core 155 r2901 7d0ff22
Encoding settings : cabac=1 / ref=1 / deblock=1:0:0 / analyse=0x1:0x111 / me=hex / subme=2 / psy=1 / psy_rd=1.00:0.00 / mixed_ref=0 / me_range=16 / chroma_me=1 / trellis=0 / 8x8dct=0 / cqm=0 / deadzone=21,11 / fast_pskip=1 / chroma_qp_offset=0 / threads=24 / lookahead_threads=8 / sliced_threads=0 / nr=0 / decimate=1 / interlaced=0 / bluray_compat=0 / constrained_intra=0 / bframes=3 / b_pyramid=2 / b_adapt=1 / b_bias=0 / direct=1 / weightb=1 / open_gop=0 / weightp=1 / keyint=240 / keyint_min=24 / scenecut=40 / intra_refresh=0 / rc_lookahead=10 / rc=abr / mbtree=1 / bitrate=3301 / ratetol=1.0 / qcomp=0.60 / qpmin=0 / qpmax=69 / qpstep=4 / vbv_maxrate=20000 / vbv_bufsize=25000 / nal_hrd=none / filler=0 / ip_ratio=1.40 / aq=1:1.00
Default : Yes
Forced : No
Color range : Limited
Color primaries : BT.709
Transfer characteristics : BT.709
Matrix coefficients : BT.709


Audio
ID : 2
Format : AC-3
Format/Info : Audio Coding 3
Commercial name : Dolby Digital
Codec ID : A_AC3
Duration : 1 h 43 min
Bit rate mode : Constant
Bit rate : 224 kb/s
Channel(s) : 1 channel
Channel layout : C
Sampling rate : 48.0 kHz
Frame rate : 31.250 FPS (1536 SPF)
Bit depth : 16 bits
Compression mode : Lossy
Stream size : 165 MiB (6%)
Title : Mono
Language : English
Service kind : Complete Main
Default : Yes
Forced : No


Text
ID : 3
Format : UTF-8
Codec ID : S_TEXT/UTF8
Codec ID/Info : UTF-8 Plain Text
Title : Greek
Default : Yes
Forced : No

Kρυφό περιεχόμενο είναι διαθέσιμο για εγγεγραμμένους χρήστες!


720p


Kρυφό περιεχόμενο είναι διαθέσιμο για εγγεγραμμένους χρήστες!


Κωδικός Αποσυμπίεσης: Sexmeup

40089466905_8e4a5d3f42_o.png
 

Create an account or login to comment

You must be a member in order to leave a comment

Create account

Create an account on our community. It's easy!

Log in

Already have an account? Log in here.

Μπλουζα Κάτω μέρος